Подписывайся на наш канал в Telegram https://t.me/torrentok и получи доступ к торрентам без ограничений!

По следу монстра (26.09.2020) "Кто убил мою маму" WEBRip [H.264] [MP4|1920x1080p] торрент скачать бесплатно

По следу монстра (26.09.2020) Кто убил мою маму WEBRip [H.264] [MP4|1920x1080p]Производство: Россия | Киностудия Лига
Жанр: Документальный, криминал, расследование
Ведущий: Александр Яцко

Описание

По следу монстра — художественно-документальный цикл, в основу которого легли реальные истории, потрясшие всю страну. Новый проект телеканала НТВ — это сочетание игрового кино и настоящей документалистики, а каждая серия — история поиска преступника, пытающегося уйти от наказания. Реальные дела, реальные участники, родственники, свидетели и ответы на животрепещущие вопросы: что превращает человека в монстра, почему он становится убийцей и можно ли его распознать, пока не случилась большая беда?
Продолжительность: 00: 44: 55
Качество видео: WEBRip
Перевод: Не требуется (Русский)
Субтитры: Отсутствуют
Видео: AVC/H.264, 1920x1080, ~2845 kbps
Аудио: AAC, 2 ch, 128 kbps - русский
General
Complete name : По_следу_монстра_Кто_убил_мою_маму_26_09_2020_1080p.mp4
Format : MPEG-4
Format profile : Base Media
Codec ID : isom (isom/iso2/avc1/mp41)
File size : 957 MiB
Duration : 44 min 55 s
Overall bit rate : 2 979 kb/s
Writing application : Lavf58.20.100
Video
ID : 1
Format : AVC
Format/Info : Advanced Video Codec
Format profile : [email protected]
Format settings : CABAC/3 Ref Frames
Format settings, CABAC : Yes
Format settings, ReFrames : 3 frames
Codec ID : avc1
Codec ID/Info : Advanced Video Coding
Duration : 44 min 55 s
Duration_FirstFrame : -40 ms
Bit rate : 2 845 kb/s
Width : 1 920 pixels
Height : 1 080 pixels
Display aspect ratio : 16: 9
Frame rate mode : Variable
Frame rate : 25.000 FPS
Minimum frame rate : 25.000 FPS
Maximum frame rate : 25.014 FPS
Color space : YUV
Chroma subsampling : 4: 2: 0
Bit depth : 8 bits
Scan type : Progressive
Bits/(Pixel*Frame) : 0.055
Stream size : 914 MiB (96%)
Color range : Limited
Color primaries : BT.709
Transfer characteristics : BT.709
Matrix coefficients : BT.709
Codec configuration box : avcC
Audio
ID : 2
Format : AAC LC
Format/Info : Advanced Audio Codec Low Complexity
Codec ID : mp4a-40-2
Duration : 44 min 55 s
Bit rate mode : Constant
Bit rate : 128 kb/s
Channel(s) : 2 channels
Channel layout : L R
Sampling rate : 44.1 kHz
Frame rate : 43.066 FPS (1024 SPF)
Compression mode : Lossy
Stream size : 41.1 MiB (4%)
Default : Yes
Alternate group : 1

Другие торренты по теме:

  • По следу монстра (19.09.2020) "В постели с маньяком" WEBRip [H.264] [MP4|1920x1080]
  • По следу монстра (12.09.2020) "Родная кровь" WEBRip [H.264] [MP4|1920x1080]
  • По следу монстра (05.09.2020) "Пункт назначения" WEBRip [H.264] [MP4|1920x1080]

  • Посетители, находящиеся в группе Гости, не могут оставлять комментарии в данной новости.