Подписывайся на наш канал в Telegram https://t.me/torrentok и получи доступ к торрентам без ограничений!

«Про людей и про войну» (2020) WEBRip [H.264] [1920x1080p] торрент скачать бесплатно

«Про людей и про войну» (2020) WEBRip [H.264] [1920x1080p]Производство: Россия | АРГО продакшн
Жанр: Короткометражный, ВОВ
Режиссер: Artel Film
Актеры: Андрей Кислицин, Андрей Пынзару, Сергей Сафронов, Антон Богданов и другие.

Описание

Серия художественных короткометражных фильмов на тему Люди и Великая Отечественная
Возраст: 16+ (зрителям, достигшим 16 лет)
Продолжительность: 00: 04: 41-00: 10: 08
Качество видео: WEBRip
Перевод: Не требуется (русский)
Субтитры: Отсутствуют
Видео: AVC/H.264, 1920x1080, ~2300 kbps
Аудио: AAC, 2 ch, 128 kbps
General
Complete name : Про людей и про войну6. ЛЮБУШКА.mp4
Format : MPEG-4
Format profile : Base Media
Codec ID : isom (isom/iso2/avc1/mp41)
File size : 170 MiB
Duration : 9 min 38 s
Overall bit rate : 2 465 kb/s
Writing application : Lavf58.20.100
Video
ID : 1
Format : AVC
Format/Info : Advanced Video Codec
Format profile : [email protected]
Format settings : CABAC/3 Ref Frames
Format settings, CABAC : Yes
Format settings, ReFrames : 3 frames
Codec ID : avc1
Codec ID/Info : Advanced Video Coding
Duration : 9 min 38 s
Duration_FirstFrame : -40 ms
Bit rate : 2 331 kb/s
Width : 1 920 pixels
Height : 1 080 pixels
Display aspect ratio : 16: 9
Frame rate mode : Variable
Frame rate : 25.000 FPS
Minimum frame rate : 25.000 FPS
Maximum frame rate : 25.014 FPS
Color space : YUV
Chroma subsampling : 4: 2: 0
Bit depth : 8 bits
Scan type : Progressive
Bits/(Pixel*Frame) : 0.045
Stream size : 161 MiB (95%)
Writing library : x264 core 155 r2901 7d0ff22
Color range : Limited
Color primaries : BT.709
Transfer characteristics : BT.709
Matrix coefficients : BT.709
Codec configuration box : avcC
Audio
ID : 2
Format : AAC LC
Format/Info : Advanced Audio Codec Low Complexity
Codec ID : mp4a-40-2
Duration : 9 min 38 s
Bit rate mode : Constant
Bit rate : 128 kb/s
Channel(s) : 2 channels
Channel layout : L R
Sampling rate : 44.1 kHz
Frame rate : 43.066 FPS (1024 SPF)
Compression mode : Lossy
Stream size : 8.83 MiB (5%)
Default : Yes
Alternate group : 1

Другие торренты по теме:

  • Упырь Лихой | Толерантные рассказы про людей и собак (2018) [FB2]
  • Про животных и людей. Выпуск 1 (2014) SATRip скачать через торрент бесплатно
  • Семен Гарин | Про смелых людей и железную гору (1960) [FB2]
  • Про уродов и людей (1998) WEB-DL [H.264 / 720p-LQ]
  • Про уродов и людей (1998) WEB-DL [H.264 / 1080p-LQ]

  • Посетители, находящиеся в группе Гости, не могут оставлять комментарии в данной новости.