Подписывайся на наш канал в Telegram https://t.me/torrentok и получи доступ к торрентам без ограничений!

Следствие вели... (04.10.2020) "Электрический стул" WEBRip [H.264] [MP4|1920x1080] торрент скачать бесплатно

Следствие вели... (04.10.2020) Электрический стул WEBRip [H.264] [MP4|1920x1080]Производство: Россия | Телекомпания НТВ
Жанр: Документальный, криминал, расследование
Ведущий: Леонид Каневский

Описание

1986 год. В Волгоградской области происходит очень необычное преступление: кто-то устраивает жертве настоящую казнь, соорудив с помощью трансформатора линии электропередач подобие электрического стула. Вскоре неизвестные нападают на пенсионера. И снова в ход идут пытки электричеством.

Возраст: 16+ (зрителям, достигшим 16 лет)
Продолжительность: 00: 43: 55
Качество видео: WEBRip
Субтитры: Отсутствуют
Видео: AVC/H.264, 1920x1080, ~6000 kbps
Аудио: AAC, 2 ch, 128 kbps - русский
General
Complete name : D: Sledstvie_Veli_04_10_2020_1080p.mp4
Format : MPEG-4
Format profile : Base Media
Codec ID : isom (isom)
File size : 1.88 GiB
Duration : 43 min 55 s
Overall bit rate mode : Variable
Overall bit rate : 6 127 kb/s
Encoded date : UTC 2020-10-03 21: 17: 59
Tagged date : UTC 2020-10-03 21: 17: 59
Video
ID : 1
Format : AVC
Format/Info : Advanced Video Codec
Format profile : High@L4.1
Format settings : 2 Ref Frames
Format settings, CABAC : No
Format settings, ReFrames : 2 frames
Codec ID : avc1
Codec ID/Info : Advanced Video Coding
Duration : 43 min 55 s
Bit rate mode : Constant
Bit rate : 6 000 kb/s
Width : 1 920 pixels
Height : 1 080 pixels
Display aspect ratio : 16: 9
Frame rate mode : Constant
Frame rate : 25.000 FPS
Standard : PAL
Color space : YUV
Chroma subsampling : 4: 2: 0
Bit depth : 8 bits
Scan type : Progressive
Bits/(Pixel*Frame) : 0.116
Stream size : 1.84 GiB (98%)
Language : English
Encoded date : UTC 2020-10-03 20: 14: 27
Tagged date : UTC 2020-10-03 21: 18: 47
Color range : Limited
Color primaries : BT.709
Transfer characteristics : BT.709
Matrix coefficients : BT.709
Codec configuration box : avcC
Audio
ID : 2
Format : AAC LC
Format/Info : Advanced Audio Codec Low Complexity
Codec ID : mp4a-40-2
Duration : 43 min 55 s
Bit rate mode : Variable
Bit rate : 125 kb/s
Maximum bit rate : 262 kb/s
Channel(s) : 2 channels
Channel layout : L R
Sampling rate : 48.0 kHz
Frame rate : 46.875 FPS (1024 SPF)
Compression mode : Lossy
Stream size : 39.4 MiB (2%)
Language : English
Encoded date : UTC 2020-10-03 20: 14: 27
Tagged date : UTC 2020-10-03 21: 18: 47
Скриншоты:


Все одноименные релизы в Клубе
Время раздачи: 24/7 (до появления первых 3-5 скачавших)

Другие торренты по теме:

  • Следствие вели... с Леонидом Каневским. Проклятый клад. Выпуск 278 (28.09.2014) SATRip
  • Следствие вели... с Леонидом Каневским. Убийство из милосердия. Выпуск 279 (11.10.2014) SATRip скачать через торрент бесплатно
  • Следствие вели... с Леонидом Каневским. Призрак на колесах. Выпуск 280 (18.10.2014) SATRip скачать через торрент бесплатно
  • Следствие вели... с Леонидом Каневским. Бумеранг. Выпуск 281 (25.10.2014) SATRip
  • Следствие вели... с Леонидом Каневским. Хозяин города. Выпуск 282 (01.11.2014) SATRip скачать через торрент бесплатно
  • Следствие вели... с Леонидом Каневским. Правдоруб. Выпуск 283 (08.11.2014) SATRip скачать через торрент бесплатно
  • Следствие вели... с Леонидом Каневским. Опасный попутчик. Выпуск 284 (15.11.2014) SATRip
  • Следствие вели... с Леонидом Каневским. Старики-разбойники. Выпуск 285 (22.11.2014) SATRip

  • Посетители, находящиеся в группе Гости, не могут оставлять комментарии в данной новости.