Подписывайся на наш канал в Telegram https://t.me/torrentok и получи доступ к торрентам без ограничений!

По следу монстра (17.10.2020) "Тропиканка" WEBRip [H.264] [MP4|1920x1080] торрент скачать бесплатно

По следу монстра (17.10.2020) Тропиканка WEBRip [H.264] [MP4|1920x1080]Производство: Россия | Киностудия Лига
Жанр: Документальный, криминал, расследование
Ведущий: Александр Яцко

Описание

По следу монстра — художественно-документальный цикл, в основу которого легли реальные истории, потрясшие всю страну. Новый проект телеканала НТВ — это сочетание игрового кино и настоящей документалистики, а каждая серия — история поиска преступника, пытающегося уйти от наказания. Реальные дела, реальные участники, родственники, свидетели и ответы на животрепещущие вопросы: что превращает человека в монстра, почему он становится убийцей и можно ли его распознать, пока не случилась большая беда?
Продолжительность: 00: 43: 56
Качество видео: WEBRip
Перевод: Не требуется (Русский)
Субтитры: Отсутствуют
Видео: AVC/H.264, 1920x1080, ~6000 kbps
Аудио: AAC, 2 ch, 128 kbps
General
Complete name : D: Po_sledu_monstra_Tropikanka_1080p.mp4
Format : MPEG-4
Format profile : Base Media
Codec ID : isom (isom)
File size : 1.88 GiB
Duration : 43 min 56 s
Overall bit rate mode : Variable
Overall bit rate : 6 126 kb/s
Encoded date : UTC 2020-10-15 14: 40: 47
Tagged date : UTC 2020-10-15 14: 40: 47
Video
ID : 1
Format : AVC
Format/Info : Advanced Video Codec
Format profile : High@L4.1
Format settings : 2 Ref Frames
Format settings, CABAC : No
Format settings, ReFrames : 2 frames
Codec ID : avc1
Codec ID/Info : Advanced Video Coding
Duration : 43 min 56 s
Bit rate mode : Constant
Bit rate : 6 000 kb/s
Width : 1 920 pixels
Height : 1 080 pixels
Display aspect ratio : 16: 9
Frame rate mode : Constant
Frame rate : 25.000 FPS
Standard : PAL
Color space : YUV
Chroma subsampling : 4: 2: 0
Bit depth : 8 bits
Scan type : Progressive
Bits/(Pixel*Frame) : 0.116
Stream size : 1.84 GiB (98%)
Language : English
Encoded date : UTC 2020-10-15 12: 50: 53
Tagged date : UTC 2020-10-15 14: 41: 42
Color range : Limited
Color primaries : BT.709
Transfer characteristics : BT.709
Matrix coefficients : BT.709
Codec configuration box : avcC
Audio
ID : 2
Format : AAC LC
Format/Info : Advanced Audio Codec Low Complexity
Codec ID : mp4a-40-2
Duration : 43 min 56 s
Bit rate mode : Variable
Bit rate : 128 kb/s
Maximum bit rate : 576 kb/s
Channel(s) : 2 channels
Channel layout : L R
Sampling rate : 48.0 kHz
Frame rate : 46.875 FPS (1024 SPF)
Compression mode : Lossy
Stream size : 39.4 MiB (2%)
Language : English
Encoded date : UTC 2020-10-15 12: 50: 53
Tagged date : UTC 2020-10-15 14: 41: 42

Другие торренты по теме:

  • По следу монстра (19.09.2020) "В постели с маньяком" WEBRip [H.264] [MP4|1920x1080]
  • По следу монстра (12.09.2020) "Родная кровь" WEBRip [H.264] [MP4|1920x1080]
  • По следу монстра (05.09.2020) "Пункт назначения" WEBRip [H.264] [MP4|1920x1080]
  • По следу монстра (26.09.2020) "Кто убил мою маму" WEBRip [H.264] [MP4|1920x1080p]
  • По следу монстра (03.10.2020) "Таинственный отравитель" WEBRip [H.264] [MP4|1920x1080]
  • По следу монстра (10.10.2020) "Старший сын" WEBRip [H.264] [MP4|1920x1080]
  • По следу монстра (24.10.2020) "Чужая семья" WEBRip [H.264] [MP4|1920x1080]
  • По следу монстра (31.10.2020) "Деревенская Золушка" WEBRip [H.264] [MP4|1920x1080]

  • Посетители, находящиеся в группе Гости, не могут оставлять комментарии в данной новости.