Подписывайся на наш канал в Telegram https://t.me/torrentok и получи доступ к торрентам без ограничений!

Сельский детектив (2019-2020) WEBRip [H.264] (фильмы 1-5, серии 1-12 из 12) [MP4|1920x1080p] торрент скачать бесплатно

Сельский детектив (2019-2020) WEBRip [H.264] (фильмы 1-5, серии 1-12 из 12) [MP4|1920x1080p]Производство: Россия | ТПО Сила
Жанр: Детектив
Режиссер: Сахат Дурсунов, Валерий Девятилов
Актеры: Олеся Фаттахова, Алексей Демидов, Данила Якушев, Елена Цыплакова, Павел Белозеров, Александр Пашутин, Надежда Бахтина, Наталья Лукеичева, Алексей Овсянников, Анна Сафронова и др.

Описание

Фильм 1, Яблоня раздора:
Олеся Федосеева – городская девушка со скучной работой и полным штилем в личной жизни. Однажды она узнает, что ее дед Василий подозревается в убийстве соседа, егеря Степана Блинова. Василий живет в деревне и в силу вредного характера не поддерживает никаких отношений ни с дочерью, ни с внучкой. Олеся решает навестить деда, который, доказывая невиновность, распереживался и, попав в больницу, просит приглядеть за его хозяйством.

Продолжительность: ~00: 45: 00 серия
Качество видео: WEBRip
Перевод: Не требуется (русский)
Субтитры: Отсутствуют
Видео: AVC/H.264, 1920x1080, ~3000-3800 kbps
Аудио: AAC, 2 ch, 128 kbps
General
Complete name : D: 5 Ограбление по-ольховски1.mp4
Format : MPEG-4
Format profile : Base Media
Codec ID : isom (isom/iso2/avc1/mp41)
File size : 1.21 GiB
Duration : 44 min 7 s
Overall bit rate : 3 937 kb/s
Writing application : Lavf58.20.100
Video
ID : 1
Format : AVC
Format/Info : Advanced Video Codec
Format profile : High@L4
Format settings : CABAC/3 Ref Frames
Format settings, CABAC : Yes
Format settings, ReFrames : 3 frames
Codec ID : avc1
Codec ID/Info : Advanced Video Coding
Duration : 44 min 7 s
Bit rate : 3 803 kb/s
Width : 1 920 pixels
Height : 1 080 pixels
Display aspect ratio : 16: 9
Frame rate mode : Variable
Frame rate : 23.976 FPS
Minimum frame rate : 23.974 FPS
Maximum frame rate : 90 000.000 FPS
Color space : YUV
Chroma subsampling : 4: 2: 0
Bit depth : 8 bits
Scan type : Progressive
Bits/(Pixel*Frame) : 0.076
Stream size : 1.17 GiB (97%)
Color range : Limited
Color primaries : BT.709
Transfer characteristics : BT.709
Matrix coefficients : BT.709
Codec configuration box : avcC
Audio
ID : 2
Format : AAC LC
Format/Info : Advanced Audio Codec Low Complexity
Codec ID : mp4a-40-2
Duration : 44 min 7 s
Bit rate mode : Constant
Bit rate : 128 kb/s
Channel(s) : 2 channels
Channel layout : L R
Sampling rate : 44.1 kHz
Frame rate : 43.066 FPS (1024 SPF)
Compression mode : Lossy
Stream size : 40.4 MiB (3%)
Default : Yes
Alternate group : 1

Другие торренты по теме:

  • Сельский детектив. Яблоня раздора (2019) SATRip [H.264] (серии 1-2 из 2)
  • Сельский детектив. Месть Чернобога (2019) SATRip [H.264] (фильм 2, серии 1-2 из 2)
  • Сельский детектив. Иголка в стоге сена (2020) SATRip [H.264] (фильм 3, серии 1-4 из 4)
  • Сельский детектив. Ловушка для мертвеца (2020) SATRip [H.264] (фильм 4, серии 1-2 из 2)
  • Сельский детектив. Ограбление по-ольховски (2020) SATRip [H.264] (фильм 5, серии 1-2 из 2)

  • Посетители, находящиеся в группе Гости, не могут оставлять комментарии в данной новости.